<?xml version="1.0" standalone="no"?>
<!DOCTYPE svg PUBLIC "-//W3C//DTD SVG 1.1//EN" "http://www.w3.org/Graphics/SVG/1.1/DTD/svg11.dtd" >
<svg xmlns="http://www.w3.org/2000/svg">
<metadata></metadata>
<defs>
<font id="robotolight_italic" horiz-adv-x="1111" >
<font-face units-per-em="2048" ascent="1536" descent="-512" />
<missing-glyph horiz-adv-x="493" />
<glyph unicode="&#xfb01;" horiz-adv-x="1077" d="M112 984l17 98h175l16 121q27 171 133 264t270 91q121 -2 269 -61l-31 -102q-119 54 -234 56q-122 1 -195 -66t-92 -182l-18 -121h246l-17 -98h-245l-171 -984h-119l171 984h-175zM678 0l189 1082h119l-188 -1082h-120z" />
<glyph unicode="&#xfb02;" horiz-adv-x="1092" d="M126 984l18 98h173l19 134q22 161 118 253.5t251 90.5q89 -2 178 -22l184 -42l-256 -1496h-116l240 1425l-108 20q-62 11 -121 11q-103 0 -168.5 -64.5t-82.5 -181.5l-19 -128h251l-18 -98h-249l-171 -984h-120l171 984h-174z" />
<glyph horiz-adv-x="10" />
<glyph horiz-adv-x="10" />
<glyph unicode="&#xd;" horiz-adv-x="493" />
<glyph horiz-adv-x="10" />
<glyph unicode=" "  horiz-adv-x="493" />
<glyph unicode="&#x09;" horiz-adv-x="493" />
<glyph unicode="&#xa0;" horiz-adv-x="493" />
<glyph unicode="!" horiz-adv-x="458" d="M56 70q2 34 28 58t57 24q35 1 57.5 -23t19.5 -59q-2 -33 -27 -55.5t-59 -23.5t-56 21.5t-20 57.5zM133 405l176 1051h124l-190 -1051h-110z" />
<glyph unicode="&#x22;" horiz-adv-x="580" d="M212 1083l75 453h97l-23 -146l-68 -307h-81zM440 1083l76 453h97l-23 -144l-68 -309h-82z" />
<glyph unicode="#" horiz-adv-x="1165" d="M48 410l17 93h262l157 441h-270l18 96h286l149 416h102l-150 -416h300l150 416h102l-149 -416h221l-17 -96h-238l-157 -441h246l-16 -93h-263l-147 -410h-102l146 410h-299l-146 -410h-102l147 410h-247zM428 503h300l158 441h-300z" />
<glyph unicode="$" d="M87 418h119q-13 -154 62.5 -243t216.5 -91q140 -2 239.5 77t112.5 205q11 99 -46.5 172.5t-203.5 132t-216 115t-103.5 130.5t-25.5 172q13 166 126 268.5t290 119.5l35 201h102l-35 -203q154 -23 230 -139t60 -307h-118q14 153 -50 246t-191 96q-134 2 -225.5 -76 t-105.5 -204q-17 -161 129 -248q38 -23 150 -69t172 -90q162 -118 146 -314q-13 -166 -129 -269t-299 -118l-33 -190h-101l33 190q-116 11 -197 68.5t-118 153t-26 214.5z" />
<glyph unicode="%" horiz-adv-x="1478" d="M199 1099l7 76q15 132 103.5 219.5t211.5 83.5q115 -4 182.5 -89t58.5 -213l-7 -67q-15 -141 -103.5 -227.5t-209.5 -82.5q-113 2 -182.5 87.5t-60.5 212.5zM277 175l885 1131l69 -48l-881 -1136zM296 1097q-7 -95 34 -152.5t117 -59.5q82 -2 139 57t71 157l8 78 q8 95 -33.5 153.5t-115.5 60.5q-81 2 -140.5 -59.5t-71.5 -163.5zM768 279l7 77q15 130 102 217t212 85q117 -4 184 -88.5t58 -212.5l-7 -78q-15 -132 -104.5 -218.5t-209.5 -82.5q-115 2 -183 88t-59 213zM864 277q-7 -94 33.5 -152.5t117.5 -60.5q80 -2 138.5 56.5 t72.5 158.5l8 79q7 97 -32 154t-118 59q-84 2 -142.5 -59.5t-69.5 -162.5z" />
<glyph unicode="&#x26;" horiz-adv-x="1232" d="M74 363q9 109 88 212t266 221l-37 65q-83 153 -72 276q12 152 113 247t252 93q127 -4 203 -82.5t68 -195.5q-13 -166 -229 -316l-150 -104l311 -461q112 148 142 333h108q-33 -250 -186 -422l152 -229h-132l-97 144q-194 -168 -412 -164q-180 2 -290.5 107t-97.5 276z M195 363q-17 -121 60.5 -200t211.5 -81q172 -3 345 150l-318 469l-11 15l-49 -35l-52 -41q-171 -140 -187 -277zM438 1142q-13 -119 86 -280l180 130q124 97 135 208q8 75 -39.5 125t-123.5 50q-96 2 -161.5 -65.5t-76.5 -167.5z" />
<glyph unicode="'" horiz-adv-x="348" d="M190 1090l76 446h101l-23 -147l-63 -299h-91z" />
<glyph unicode="(" horiz-adv-x="643" d="M120 392q11 261 96.5 523t218 445t301.5 273l21 -82q-160 -109 -278 -306t-184.5 -472t-61.5 -533l2 -66q22 -400 219 -566l-35 -77q-200 149 -268 466q-41 193 -31 395z" />
<glyph unicode=")" horiz-adv-x="657" d="M-124 -393q189 129 316 375.5t183 589.5l4 20q24 169 22 329q-5 231 -62 390.5t-159 243.5l35 76q156 -114 233.5 -344t65.5 -518q-4 -94 -16 -176l-3 -16q-59 -376 -215 -651t-383 -397z" />
<glyph unicode="*" horiz-adv-x="853" d="M114 1111l47 97l303 -124l61 372h104l-73 -369l334 125l15 -106l-344 -115l166 -296l-89 -60l-154 305l-250 -301l-78 66l261 298z" />
<glyph unicode="+" horiz-adv-x="1131" d="M76 628l20 112h421l81 466h120l-81 -466h430l-20 -112h-429l-84 -482h-120l84 482h-422z" />
<glyph unicode="," horiz-adv-x="390" d="M-84 -218q115 132 137 264l24 142h116l-22 -144q-33 -188 -188 -317z" />
<glyph unicode="-" horiz-adv-x="578" d="M45 592l18 101h467l-18 -101h-467z" />
<glyph unicode="." horiz-adv-x="484" d="M48 72q3 35 28.5 59.5t60.5 25.5q36 1 59 -24t20 -61q-2 -35 -27.5 -57.5t-60.5 -23.5t-58.5 22t-21.5 59z" />
<glyph unicode="/" horiz-adv-x="799" d="M-101 -125l865 1581h113l-864 -1581h-114z" />
<glyph unicode="0" d="M110 468l7 108l43 284q47 304 181 462.5t351 153.5q177 -4 265.5 -130.5t82.5 -353.5q-2 -72 -11 -139l-40 -258q-53 -317 -188 -469.5t-342 -145.5q-117 3 -198 62t-118 172.5t-33 253.5zM228 378q8 -143 69.5 -219t168.5 -79q150 -7 252 113t145 357l48 307 q19 122 13 227q-21 284 -238 291q-162 5 -265 -124.5t-140 -375.5l-44 -282q-15 -121 -9 -215z" />
<glyph unicode="1" d="M268 1162l21 118l508 181h23l-249 -1461h-120l228 1308z" />
<glyph unicode="2" d="M38 0l15 97l630 623q199 201 218 362q16 125 -50 207t-195 86q-140 4 -241.5 -88.5t-127.5 -249.5l-115 -1q24 195 159 319t329 122q181 -4 280.5 -111.5t82.5 -273.5q-20 -197 -248 -427l-572 -564h739l-17 -101h-887z" />
<glyph unicode="3" d="M71 395h118q-12 -134 66.5 -222t218.5 -92q150 -4 250 83.5t114 234.5q12 128 -60 204t-220 86l-21 1l-126 1l16 102l115 -2q151 0 256.5 79t120.5 213q14 132 -53.5 210t-196.5 82q-138 2 -233.5 -80t-120.5 -220l-116 -1q22 179 155.5 292t320.5 111q179 -4 279 -114.5 t84 -283.5q-9 -108 -84.5 -196t-208.5 -141q110 -39 165.5 -129t45.5 -210q-16 -191 -153 -309t-335 -114q-186 4 -298.5 119.5t-98.5 295.5z" />
<glyph unicode="4" d="M27 368l8 67l827 1021h134l-171 -987h220l-18 -101h-219l-65 -368h-119l64 368h-661zM190 469h515l144 820l-62 -83z" />
<glyph unicode="5" d="M130 384h113q2 -141 72 -220.5t199 -83.5q152 -4 248 104t112 286q14 154 -56 251.5t-205 101.5q-153 4 -284 -103l-96 28l178 708h711l-18 -111h-605l-132 -492q119 81 272 79q179 -2 276 -132.5t79 -328.5q-20 -223 -151 -359.5t-335 -132.5q-177 4 -277.5 115.5 t-100.5 289.5z" />
<glyph unicode="6" d="M115 385q-9 92 24 289q62 373 269.5 583.5t530.5 210.5h16l-12 -105h-32q-238 -5 -401 -153.5t-240 -426.5q152 177 373 173q115 -2 197 -63.5t120 -170.5t25 -238q-9 -102 -49.5 -197.5t-105.5 -165.5q-136 -146 -329 -142q-166 5 -268.5 116.5t-117.5 289.5zM236 511 q-13 -115 14 -212.5t92.5 -156.5t163.5 -61q95 -2 172.5 49.5t127 143.5t62.5 206q17 161 -50.5 265.5t-199.5 107.5q-118 2 -228.5 -67.5t-140.5 -170.5z" />
<glyph unicode="7" d="M180 0l812 1354h-801l16 102h928l-8 -69l-817 -1387h-130z" />
<glyph unicode="8" d="M72 378q11 127 96 223.5t232 149.5q-90 48 -134 133t-36 188q13 180 144.5 294t322.5 110q172 -4 273 -110.5t87 -275.5q-11 -118 -86.5 -206.5t-204.5 -140.5q106 -49 160 -141t46 -207q-15 -187 -157 -303t-350 -112q-188 4 -298 112t-95 286zM191 376 q-15 -131 63.5 -212.5t215.5 -83.5q152 -4 260 83.5t123 230.5q14 129 -65.5 214t-212.5 89q-154 2 -261.5 -90t-122.5 -231zM348 1073q-12 -118 57.5 -196t189.5 -80q133 -4 231.5 80.5t110.5 213.5q12 117 -57.5 198.5t-189.5 85.5q-138 2 -233 -84t-109 -218z" />
<glyph unicode="9" d="M159 958q15 145 83.5 266.5t175.5 188t236 64.5q172 -4 270.5 -120t104.5 -325q3 -112 -28 -297q-61 -360 -255.5 -551t-494.5 -196h-49l12 104h40q246 4 400.5 147.5t224.5 433.5q-76 -95 -175 -147.5t-204 -48.5q-114 2 -196 67t-119.5 174.5t-25.5 239.5zM277 963 q-11 -101 14.5 -189.5t84 -140t144.5 -53.5q114 -4 216 65.5t162 191.5q14 122 14 171q0 171 -67.5 266.5t-194.5 99.5q-97 2 -176.5 -51.5t-132 -150.5t-64.5 -209z" />
<glyph unicode=":" horiz-adv-x="427" d="M31 72q3 35 28.5 59.5t60.5 25.5q36 1 59 -24t20 -61q-2 -35 -27.5 -57.5t-60.5 -23.5t-58.5 22t-21.5 59zM191 995q3 35 28.5 59.5t60.5 25.5q36 1 59 -24t20 -61q-2 -35 -27.5 -57.5t-60.5 -23.5t-58.5 22t-21.5 59z" />
<glyph unicode=";" horiz-adv-x="397" d="M-84 -218q115 132 137 264l24 142h116l-22 -144q-33 -188 -188 -317zM180 995q3 35 28.5 59.5t60.5 25.5q36 1 59 -24t20 -61q-2 -35 -27.5 -57.5t-60.5 -23.5t-58.5 22t-21.5 59z" />
<glyph unicode="&#x3c;" horiz-adv-x="1026" d="M75 612l17 96l872 379l-24 -133l-728 -302l624 -300l-22 -121z" />
<glyph unicode="=" horiz-adv-x="1109" d="M112 418l19 106h811l-19 -106h-811zM183 829l19 106h812l-19 -106h-812z" />
<glyph unicode="&#x3e;" horiz-adv-x="1039" d="M54 227l23 131l743 304l-638 303l21 118l757 -379l-17 -97z" />
<glyph unicode="?" horiz-adv-x="912" d="M172 1115q24 166 141 266t283 96q153 -4 238.5 -104t70.5 -262q-18 -187 -206 -356l-113 -95q-106 -95 -137 -256l-110 -2q13 110 61 195t147 169t139.5 131.5t66 99t31.5 113.5q13 113 -38.5 185t-158.5 76q-115 2 -194.5 -65.5t-105.5 -189.5zM256 70q3 34 27 57.5 t59 24.5t57 -23t20 -59q-3 -33 -28 -55.5t-58 -23.5q-35 -1 -57 21.5t-20 57.5z" />
<glyph unicode="@" horiz-adv-x="1824" d="M74 246q0 223 79 443.5t222 390t326.5 256.5t386.5 84q196 -3 335.5 -83t212.5 -235t73 -357q0 -214 -63.5 -395t-171.5 -277.5t-245 -92.5q-86 2 -142.5 52.5t-62.5 140.5q-81 -109 -157.5 -153t-158.5 -41q-92 3 -145 67t-59 189q-11 173 65 364t194 291.5t260 98.5 q77 -2 135.5 -30t115.5 -77l-135 -574l-8 -77q-5 -73 25 -118t91 -48q106 -4 186 78t128.5 237t55.5 342q6 186 -53.5 323.5t-181 208t-300.5 73.5q-240 4 -443 -134.5t-330.5 -390.5t-133.5 -528q-6 -186 56 -334t183 -224.5t289 -77.5q167 -4 337 78l23 -82 q-151 -89 -365 -87q-191 1 -332 84.5t-216.5 244.5t-75.5 370zM609 285q-5 -96 28.5 -151.5t99.5 -58.5q93 -5 178.5 69t124.5 186l130 520q-60 45 -142 49q-158 5 -268.5 -149t-144.5 -393z" />
<glyph unicode="A" horiz-adv-x="1251" d="M-79 0l787 1456h117l281 -1456h-121l-76 408h-638l-217 -408h-133zM326 513h563l-144 789z" />
<glyph unicode="B" horiz-adv-x="1227" d="M73 0l253 1456l410 -1q209 -5 315 -103q92 -85 92 -226q0 -21 -2 -44q-11 -114 -83 -198.5t-195 -128.5q104 -33 162 -125q50 -80 50 -180q0 -16 -1 -32q-15 -190 -153.5 -304t-361.5 -114h-486zM213 104l350 -1q158 0 265.5 83t124.5 230q2 20 2 38q1 101 -59 165 q-70 76 -206 80l-373 1zM334 803l319 -1q156 2 253.5 79t111.5 206q2 19 2 36q0 217 -287 227l-303 1z" />
<glyph unicode="C" horiz-adv-x="1300" d="M127 481q-1 18 -1 36q0 60 8 119l27 176q31 201 124.5 356t227.5 233q129 75 283 75h12q208 -4 325 -132q115 -126 115 -338v-7l-121 1q0 175 -84 271.5t-241 100.5h-13q-191 0 -325 -148q-140 -152 -181 -421l-30 -200l-4 -90v-12q1 -111 35 -207q36 -101 109 -154 t175 -56h21q160 0 270 88q117 94 172 281l119 1q-51 -224 -207 -352q-149 -122 -361 -122h-20q-195 4 -310.5 138.5t-124.5 362.5z" />
<glyph unicode="D" horiz-adv-x="1311" d="M73 0l253 1456l379 -1q169 0 293 -86.5t180 -238.5q39 -108 39 -231q0 -51 -7 -105l-18 -121q-46 -303 -242 -488t-481 -185h-396zM213 104l260 -1q153 0 279 70t208.5 197.5t108 288t27.5 221.5v19q0 51 -7 99q-23 160 -122 254t-256 98l-281 1z" />
<glyph unicode="E" horiz-adv-x="1140" d="M73 0l253 1456h877l-19 -105h-754l-96 -549h661l-18 -104h-660l-104 -594h760l-18 -104h-882z" />
<glyph unicode="F" horiz-adv-x="1127" d="M73 0l253 1456h878l-19 -105h-755l-99 -566h660l-19 -105h-658l-119 -680h-122z" />
<glyph unicode="G" horiz-adv-x="1368" d="M143 484q-2 26 -2 51q0 55 8 109l25 166q47 306 222 488q169 178 419 178h14q200 -4 320 -119t126 -312h-120q-7 152 -92 237t-239 89h-13q-196 0 -333 -147q-141 -152 -182 -418l-24 -156q-8 -54 -8 -111v-23q3 -198 96 -313.5t254 -117.5h19q243 0 376 126l66 376h-379 l18 104h501l-84 -518q-74 -95 -213 -145q-130 -48 -289 -48h-19q-203 2 -329 139t-138 365z" />
<glyph unicode="H" horiz-adv-x="1416" d="M73 0l253 1456h122l-114 -654h804l114 654h124l-254 -1456h-123l122 698h-804l-122 -698h-122z" />
<glyph unicode="I" horiz-adv-x="539" d="M99 0l253 1456h122l-253 -1456h-122z" />
<glyph unicode="J" horiz-adv-x="1103" d="M44 401h122q-3 -27 -3 -52q0 -110 54 -178q66 -84 201 -88h11q132 0 228 91q100 95 127 257l175 1025h123l-175 -1023q-29 -203 -163 -331q-130 -123 -322 -123h-12q-188 4 -286 117q-83 95 -83 247q0 28 3 58z" />
<glyph unicode="K" horiz-adv-x="1263" d="M73 0l253 1456h122l-135 -776l233 210l618 566h163l-711 -654l494 -802h-138l-449 721l-238 -205l-90 -516h-122z" />
<glyph unicode="L" horiz-adv-x="1057" d="M73 0l253 1456h123l-235 -1352h698l-18 -104h-821z" />
<glyph unicode="M" horiz-adv-x="1729" d="M73 0l253 1456h158l297 -1282l744 1282h165l-253 -1456h-122l111 639l119 630l-741 -1269h-94l-302 1279l-103 -646l-110 -633h-122z" />
<glyph unicode="N" horiz-adv-x="1420" d="M73 0l253 1456h118l598 -1249l217 1249h121l-252 -1456h-118l-597 1248l-217 -1248h-123z" />
<glyph unicode="O" horiz-adv-x="1354" d="M124 489q-1 21 -1 43q0 58 8 116l20 138q45 305 220 498q175 192 429 192h13q134 -3 234.5 -65.5t156.5 -182t61 -262.5q1 -17 1 -34q0 -68 -10 -134l-23 -154q-35 -206 -129.5 -360t-229.5 -230q-130 -74 -285 -74h-12q-204 4 -323.5 141.5t-129.5 367.5zM245 521 q0 -202 88.5 -316t249.5 -118h13q204 0 340 154q140 159 178 420l22 148q8 63 9 128q0 122 -38 222t-114.5 153.5t-185.5 56.5h-13q-192 1 -328 -143q-141 -148 -186 -402q-35 -199 -35 -298v-5z" />
<glyph unicode="P" horiz-adv-x="1233" d="M73 0l253 1456l474 -1q204 -7 315 -121q96 -99 97 -256q0 -24 -3 -50q-20 -204 -165 -320t-378 -116l-368 1l-103 -593h-122zM316 697l355 -1q173 0 285 88t131 243q3 25 3 48q0 113 -66 185q-80 86 -227 90l-367 1z" />
<glyph unicode="Q" horiz-adv-x="1354" d="M120 491q-1 22 -1 43q0 59 8 115l22 149q30 201 125 361t232 240q132 77 290 77h12q204 -4 324 -141t129 -369q1 -17 1 -34q0 -68 -10 -134l-26 -172q-75 -415 -375 -576l216 -233l-91 -71l-242 256q-86 -21 -164 -21q-133 1 -233 64t-155.5 181.5t-61.5 264.5zM240 521 q0 -197 87.5 -313.5t250.5 -120.5h13q203 0 339 152q140 157 180 424l22 145q8 63 9 129q0 123 -39 224t-115.5 153t-184.5 55h-13q-194 0 -329 -145q-141 -151 -185 -406q-35 -205 -35 -297z" />
<glyph unicode="R" horiz-adv-x="1271" d="M70 0l253 1456l431 -1q218 1 336 -113q102 -98 102 -255q0 -25 -3 -52q-15 -146 -109.5 -252t-251.5 -154l248 -615l-1 -14h-130l-235 606h-411l-106 -606h-123zM317 711l360 -1q154 0 263.5 90.5t126.5 235.5q3 25 3 48q0 107 -65 177q-79 85 -233 89l-344 1z" />
<glyph unicode="S" horiz-adv-x="1187" d="M56 416h122q-2 -20 -2 -40q0 -124 84 -202q96 -90 264 -91h8q162 0 274 76q114 78 130 206q2 18 2 34q0 162 -203 242l-191 69l-62 25q-264 113 -264 325q0 16 1 32q9 116 82 204t193 136q112 45 237 44h16q129 -3 231 -60q102 -56 152 -154q41 -80 41 -178q0 -21 -2 -43 h-123q2 21 2 41q0 119 -72 196q-84 89 -235 93h-8q-153 -1 -263 -73q-112 -74 -128 -203q-2 -15 -2 -30q0 -83 62 -145q74 -72 256 -127q232 -74 322 -177q80 -91 80 -215q0 -16 -1 -33q-11 -120 -84 -208.5t-195 -135.5q-115 -44 -245 -44h-17q-139 1 -250 57 q-112 55 -168 153q-46 81 -46 184q0 21 2 42z" />
<glyph unicode="T" horiz-adv-x="1196" d="M179 1351l19 105h1089l-19 -105h-483l-235 -1351h-122l235 1351h-484z" />
<glyph unicode="U" horiz-adv-x="1316" d="M140 469l169 987h121l-168 -988q-4 -34 -5 -66q0 -124 67 -208q83 -104 244 -110h19q156 0 270 93q121 99 154 275l172 1004h123l-169 -985q-36 -230 -193 -363q-152 -129 -369 -129h-13q-141 3 -243.5 65t-148.5 174q-34 82 -35 179q0 35 5 72z" />
<glyph unicode="V" horiz-adv-x="1235" d="M166 1456h123l247 -1276l2 -31l14 31l644 1276h138l-754 -1456h-117z" />
<glyph unicode="W" horiz-adv-x="1791" d="M193 1456h122l93 -1067l7 -215l87 213l472 1069h110l136 -1079l17 -206l82 226l420 1059h128l-590 -1456h-117l-143 1144l-11 134l-56 -139l-506 -1139h-117z" />
<glyph unicode="X" horiz-adv-x="1225" d="M-45 0l603 744l-354 712h138l300 -614l493 614h152l-584 -724l364 -732h-138l-311 634l-512 -634h-151z" />
<glyph unicode="Y" horiz-adv-x="1199" d="M174 1456h137l289 -792l568 792h148l-673 -914l-94 -542h-122l97 555z" />
<glyph unicode="Z" horiz-adv-x="1198" d="M-18 0l17 99l1052 1252h-810l19 105h963l-16 -94l-1056 -1258h869l-19 -104h-1019z" />
<glyph unicode="[" horiz-adv-x="486" d="M14 -312l309 1976h323l-16 -102h-204l-276 -1772h204l-17 -102h-323z" />
<glyph unicode="\" horiz-adv-x="793" d="M197 1456h110l316 -1581h-111z" />
<glyph unicode="]" horiz-adv-x="486" d="M-144 -312l17 102h204l277 1772h-205l16 102h324l-309 -1976h-324z" />
<glyph unicode="^" horiz-adv-x="836" d="M93 729l416 727h90l163 -727h-109l-121 565l-319 -565h-120z" />
<glyph unicode="_" horiz-adv-x="867" d="M-122 -101l18 101h858l-18 -101h-858z" />
<glyph unicode="`" horiz-adv-x="577" d="M247 1524h134l142 -279h-100z" />
<glyph unicode="a" horiz-adv-x="1074" d="M46 279q8 107 73.5 185.5t186.5 122t271 43.5l221 -1l18 124q2 18 2 36q0 86 -50 142q-60 67 -177 71h-8q-113 0 -197 -58q-88 -60 -110 -160h-117q20 142 146 232q123 88 291 87h7q167 -4 257 -101q76 -82 77 -204q0 -23 -3 -48l-90 -544l-8 -87q-1 -12 -1 -23 q0 -42 9 -84l-2 -12h-123q-4 27 -4 54q0 11 1 22l9 75q-75 -81 -171 -127q-92 -44 -200 -44h-9q-137 2 -223 86q-77 76 -77 189q0 12 1 24zM168 289q-1 -12 -1 -24q-1 -72 47 -121q56 -57 151 -59h15q102 1 196 53q100 56 166 160l41 239l-191 1q-182 0 -297 -64.5 t-127 -184.5z" />
<glyph unicode="b" d="M45 0l267 1536h118l-113 -611q135 177 338 177h13q155 -4 239 -115t87 -307v-16q0 -55 -6 -107l-2 -21q-34 -258 -164 -410q-125 -147 -309 -147h-12q-106 2 -186.5 47t-123.5 122l-34 -148h-112zM215 287q29 -97 99.5 -149.5t171.5 -55.5h7q145 0 243 116 q100 118 133 361l7 95v15q0 152 -57 237q-60 89 -179 93h-8q-214 0 -335 -222z" />
<glyph unicode="c" horiz-adv-x="1033" d="M85 517l4 43q12 105 51.5 204t105.5 175.5t158 120.5q86 42 192 42h14q166 -4 264 -112q92 -102 92 -255v-19l-113 1v7q0 120 -65 195q-67 77 -183 81h-12q-116 0 -207 -72q-95 -76 -143 -215q-45 -131 -46 -277q0 -9 1 -18q3 -161 72 -247.5t195 -90.5h13q110 0 196 66 q90 70 120 187h113q-29 -161 -157 -259q-123 -95 -278 -95h-13q-131 3 -220 72t-129 191q-29 90 -29 197q0 38 4 78z" />
<glyph unicode="d" horiz-adv-x="1114" d="M87 403v27q0 48 5 93l2 21q23 170 93 302q69 131 171 195q97 61 217 61h11q96 -2 175 -44.5t125 -128.5l110 607h118l-267 -1536h-111l27 144q-136 -164 -336 -164h-14q-151 4 -236.5 117.5t-89.5 305.5zM208 381q4 -137 63.5 -215.5t169.5 -82.5h12q104 0 183 51 q84 54 142 144l87 510q-29 97 -95.5 152.5t-169.5 58.5h-12q-144 -1 -242 -117q-102 -122 -130 -337l-2 -21q-6 -54 -6 -113v-30z" />
<glyph unicode="e" horiz-adv-x="1036" d="M79 507l3 34q14 150 89 285.5t190 207.5q110 69 235 68h11q121 -2 204.5 -66t121.5 -178q28 -83 28 -179q0 -35 -4 -73l-8 -73h-749l-3 -24q-5 -36 -5 -70q0 -71 21 -139q31 -100 101.5 -158t169.5 -60h13q88 0 160 37q77 40 142 107l70 -57q-73 -95 -173 -143 q-97 -47 -212 -46h-9q-130 2 -225 72q-96 70 -140 192q-34 94 -34 200q0 31 3 63zM213 635l628 -1l3 15q4 30 4 58q0 107 -54 187q-68 102 -193 106h-13q-122 0 -220 -92q-103 -97 -155 -273z" />
<glyph unicode="f" horiz-adv-x="668" d="M126 984l18 98h173l21 147q25 159 122 246q94 85 234 85h6q58 -2 131 -20l-21 -99q-56 15 -107 15q-100 0 -165.5 -65t-82.5 -181l-19 -128h251l-18 -98h-249l-171 -984h-120l171 984h-174z" />
<glyph unicode="g" horiz-adv-x="1112" d="M18 -242l74 70q103 -155 269 -159h12q140 0 235 89q100 94 126 255l26 126q-139 -159 -333 -159h-14q-152 4 -236.5 116.5t-88.5 306.5v30q0 164 60 324q66 175 180 263q108 83 244 83h13q97 -3 177 -46t126 -131l37 156h111l-182 -1063q-19 -136 -86 -240t-172 -159 q-97 -52 -215 -52h-17q-102 2 -195 51q-94 50 -151 139zM207 430v-15q0 -153 57 -239q60 -89 177 -93h14q92 0 173 47q87 51 150 151l85 505q-27 97 -93.5 153.5t-170.5 59.5h-12q-145 0 -241 -118q-101 -123 -133 -358z" />
<glyph unicode="h" horiz-adv-x="1100" d="M46 0l267 1536h118l-118 -637q153 203 360 203h8q156 -4 227 -109q55 -81 55 -209q0 -38 -5 -80l-118 -704h-118l118 706q4 34 4 67q0 22 -2 43q-17 178 -194 183h-6q-101 -1 -190 -63q-91 -64 -160 -194l-128 -742h-118z" />
<glyph unicode="i" horiz-adv-x="455" d="M59 0l189 1082h119l-188 -1082h-120zM281 1395q5 65 86 82q39 -7 55.5 -24.5t21.5 -57.5q-10 -38 -29 -55.5t-57 -25.5q-77 11 -77 75v6z" />
<glyph unicode="j" horiz-adv-x="463" d="M-276 -419l14 99q55 -15 88 -15h6q170 0 206 211l206 1206h118l-206 -1211q-20 -151 -105 -233q-81 -78 -206 -78h-12q-43 1 -109 21zM278 1395q2 33 25.5 57t58.5 25h3q33 0 54 -23q20 -22 20 -53v-6q-3 -34 -27.5 -57t-58.5 -24h-3q-33 0 -54 22q-18 21 -18 51v8z" />
<glyph unicode="k" horiz-adv-x="983" d="M46 0l267 1536h119l-170 -974l124 114l471 406h159l-532 -461l373 -621h-132l-329 543l-160 -135l-71 -408h-119z" />
<glyph unicode="l" horiz-adv-x="455" d="M59 0l267 1536h120l-267 -1536h-120z" />
<glyph unicode="m" horiz-adv-x="1771" d="M40 0l188 1082h115l-34 -176q143 196 358 196h9q114 -2 189.5 -57t93.5 -153q75 100 173 156q95 54 206 54h8q154 -4 228 -102q63 -84 64 -222q0 -24 -2 -50l-2 -23l-119 -705h-119l118 707q3 32 3 63q0 25 -2 49q-20 177 -202 180h-6q-119 1 -219 -79 q-102 -82 -128 -204l-124 -716h-119l120 716q3 31 3 58q0 219 -206 225h-6q-112 0 -208 -72q-99 -74 -133 -184l-128 -743h-119z" />
<glyph unicode="n" horiz-adv-x="1101" d="M46 0l188 1082h114l-36 -185q72 99 166 153q91 52 195 52h8q156 -4 227 -109q55 -81 55 -209q0 -38 -5 -80l-118 -704h-118l118 706q4 34 4 67q0 22 -2 43q-17 178 -194 183h-6q-101 -1 -190 -63q-91 -64 -160 -194l-128 -742h-118z" />
<glyph unicode="o" horiz-adv-x="1123" d="M69 460l3 57l3 34q18 157 96 287q79 131 195 199q112 65 241 65h11q134 -2 228 -74q94 -70 138 -194q33 -93 33 -203q0 -35 -3 -71l-2 -19q-30 -256 -182 -411q-147 -150 -350 -150h-13q-182 3 -291 134q-107 129 -107 338v8zM191 517q-4 -36 -4 -69q-1 -80 21 -150 q30 -100 97.5 -157.5t167.5 -60.5h7q104 0 190 55q90 57 148 161t75 230l3 33q3 36 3 70q-1 145 -63 245q-78 122 -224 126h-12q-152 0 -264 -124q-116 -128 -143 -341z" />
<glyph unicode="p" d="M-27 -416l260 1498h110l-28 -153q136 173 339 173h14q152 -4 237 -113t88 -309v-16q0 -54 -6 -106l-4 -28q-25 -175 -94 -302t-168 -190q-94 -59 -210 -59h-11q-93 2 -175.5 39.5t-133.5 117.5l-100 -552h-118zM211 271q32 -92 101.5 -140t166.5 -51h12q137 0 233 108 q101 114 136 317l8 53l6 95v15q0 149 -58 236q-61 91 -181 95h-8q-100 0 -183 -51q-85 -54 -144 -156z" />
<glyph unicode="q" horiz-adv-x="1118" d="M88 402v27q0 48 5 94l2 22q35 258 165 410q127 147 315 147h12q95 -2 174 -42.5t127 -124.5l35 147h112l-260 -1498h-119l102 550q-134 -154 -328 -154h-15q-152 4 -237.5 115.5t-89.5 306.5zM207 430v-16q0 -152 57 -239q59 -91 178 -95h15q90 0 169 45q86 49 149 142 l91 532q-31 92 -97.5 145t-166.5 56h-12q-148 0 -245 -121q-101 -126 -129 -334l-2 -21z" />
<glyph unicode="r" horiz-adv-x="678" d="M46 0l188 1082h117l-36 -172q59 96 143 146q80 48 175 48h8q35 0 82 -14l-16 -109q-39 8 -79 9q-114 0 -209 -69.5t-127 -176.5l-128 -744h-118z" />
<glyph unicode="s" horiz-adv-x="1016" d="M52 304l119 -1q0 -102 69 -161t190 -61q120 0 204 54.5t96 146.5q1 11 1 22q0 121 -169 178l-172 51q-225 76 -225 248q0 9 1 19q6 136 124 220q115 83 273 82h7q159 -2 258 -90q92 -82 92 -214v-19h-118v16q0 86 -60 142q-66 61 -177 63q-114 0 -192 -53.5t-88 -141.5 l-2 -20q0 -113 160 -161l125 -36l67 -23q214 -80 213 -256v-21q-8 -130 -112.5 -213.5t-269.5 -93.5l-41 -1q-109 2 -197 42.5t-135 113.5q-42 65 -42 147q0 10 1 21z" />
<glyph unicode="t" horiz-adv-x="648" d="M87 984l18 98h192l49 277h119l-48 -277h217l-17 -98h-217l-120 -722l-2 -62q0 -109 100 -112h7q31 0 90 7l-5 -98q-53 -15 -107 -15h-13q-105 2 -153 74q-38 56 -38 152q0 26 3 55l119 721h-194z" />
<glyph unicode="u" horiz-adv-x="1101" d="M126 389l116 693h118l-115 -696q-3 -29 -4 -59q0 -24 3 -48q7 -92 55 -142t132 -53h18q110 0 204 56q102 60 132 158l134 784h120l-188 -1082h-116l29 136q-124 -156 -340 -156h-16q-153 2 -228 110q-59 84 -59 219q0 38 5 80z" />
<glyph unicode="v" horiz-adv-x="965" d="M113 1082h118l177 -913l462 913h126l-561 -1082h-97z" />
<glyph unicode="w" horiz-adv-x="1508" d="M147 1082l112 1l83 -834v-85l39 93l395 825h102l107 -827l6 -102l41 103l358 826h127l-494 -1082h-102l-119 858l-1 60l-23 -61l-414 -857h-102z" />
<glyph unicode="x" horiz-adv-x="976" d="M-52 0l462 557l-271 525h132l213 -437l351 437h148l-444 -537l283 -545h-132l-226 456l-370 -456h-146z" />
<glyph unicode="y" horiz-adv-x="954" d="M-88 -424l12 98l60 -7h11q160 0 254 198l76 151l-209 1066h125l167 -906l463 906h133l-660 -1256q-73 -146 -154 -207q-79 -59 -176 -59h-6q-38 2 -96 16z" />
<glyph unicode="z" horiz-adv-x="976" d="M-21 0l16 94l786 885h-613l18 103h767l-17 -95l-789 -886h678l-18 -101h-828z" />
<glyph unicode="{" horiz-adv-x="666" d="M58 542l12 103q230 9 268 254l34 247q54 349 398 453l18 -80q-256 -87 -299 -394l-34 -241q-36 -211 -227 -293q117 -64 129 -217q3 -45 -1 -90l-31 -227q-8 -62 -3 -120q13 -194 184 -260l-30 -79q-150 51 -219.5 170.5t-50.5 289.5l31 227q6 53 0 99q-20 147 -179 158z " />
<glyph unicode="|" horiz-adv-x="448" d="M35 -270l270 1726h101l-270 -1726h-101z" />
<glyph unicode="}" horiz-adv-x="666" d="M-136 -325q260 89 302 396l32 233q36 215 236 294q-60 28 -95 83.5t-42 131.5q-4 45 1 91l30 229q7 61 4 120q-5 96 -50.5 164.5t-128.5 100.5l32 77q146 -52 214 -170t48 -293l-30 -229q-6 -53 0 -98q20 -148 178 -156l-11 -104q-236 -10 -271 -270l-31 -231 q-54 -347 -398 -450z" />
<glyph unicode="~" horiz-adv-x="1370" d="M118 449q19 157 107.5 249.5t218.5 90.5q116 -3 228 -100l95 -90q75 -69 153 -71q83 -2 141.5 58t79.5 177l99 1q-19 -155 -108 -250.5t-218 -91.5q-119 3 -233 105l-90 86q-76 68 -152 68q-176 3 -217 -230z" />
<glyph unicode="&#xa1;" horiz-adv-x="448" d="M-5 -359l188 1049h111l-176 -1049h-123zM208 1022q3 34 27.5 57t58.5 24q35 1 57 -22.5t19 -58.5q-2 -33 -26.5 -56.5t-58.5 -24.5q-35 -1 -57 22.5t-20 58.5z" />
<glyph unicode="&#xa2;" horiz-adv-x="1092" d="M112 344q-18 177 33.5 350.5t169 278.5t276.5 126l42 219h120l-43 -221q141 -25 216.5 -128.5t69.5 -252.5l-113 1q4 124 -62 201.5t-182 81.5q-169 5 -279 -128.5t-133 -372.5l-3 -80q0 -158 66.5 -246.5t193.5 -92.5q120 -4 210 65t123 188h113q-28 -144 -137.5 -238 t-268.5 -113l-43 -227h-120l44 231q-97 18 -158 71q-117 102 -135 287z" />
<glyph unicode="&#xa3;" horiz-adv-x="1145" d="M-11 0l18 103l92 -1q113 42 143 265l37 278h-182l18 104h179l37 282q27 207 153 328.5t307 117.5q164 -4 254.5 -111.5t73.5 -277.5h-122q13 123 -44.5 201.5t-176.5 82.5q-126 3 -213.5 -89t-109.5 -258l-37 -276h334l-18 -104h-331l-37 -269q-24 -176 -112 -274l725 2 l-18 -104h-970z" />
<glyph unicode="&#xa4;" horiz-adv-x="1447" d="M12 66l183 156q-81 179 -54 379q31 228 197 409l-133 173l93 82l131 -169q190 142 390 138q97 -2 186.5 -37.5t158.5 -104.5l197 173l74 -94l-197 -170q86 -186 58 -387q-27 -215 -185 -392l130 -168l-94 -82l-124 159q-192 -155 -403 -151q-101 2 -193.5 40t-161.5 112 l-180 -158zM252 599q-12 -92 7.5 -182t67 -161.5t123.5 -117.5t177 -49q133 -4 255 67.5t203 195.5t100 264q17 128 -26.5 246.5t-134.5 187.5t-213 73q-130 4 -250 -63t-205 -192.5t-104 -268.5z" />
<glyph unicode="&#xa5;" horiz-adv-x="1196" d="M77 324l16 88h401l36 204h-403l16 89h359l-308 751h133l282 -720l532 720h149l-570 -751h353l-16 -89h-405l-36 -204h406l-16 -88h-405l-57 -324h-122l57 324h-402z" />
<glyph unicode="&#xa6;" horiz-adv-x="441" d="M2 -270l134 771h120l-135 -771h-119zM170 698l132 758h119l-132 -758h-119z" />
<glyph unicode="&#xa7;" horiz-adv-x="1212" d="M-7 -64l119 2q-15 -148 69.5 -238.5t241.5 -92.5q148 -5 256 66t124 193q10 88 -42 149.5t-177 104.5l-162 53l-80 31q-258 109 -238 339q17 199 264 286q-140 101 -123 283q9 112 78 195.5t183.5 127.5t246.5 41q201 -4 308 -121t88 -310h-118q14 145 -63 235t-220 94 q-159 2 -263 -67.5t-119 -191.5q-22 -167 176 -244l235 -80q159 -57 229 -141.5t60 -210.5q-17 -199 -273 -284q147 -100 131 -286q-9 -114 -76.5 -196.5t-182.5 -126.5t-247 -41q-208 2 -325 117.5t-100 313.5zM224 546q-13 -93 43 -158t221 -117t180 -58 q122 18 193.5 75.5t83.5 146.5q12 91 -49 157.5t-217 116.5l-64 20l-132 43q-234 -39 -259 -226z" />
<glyph unicode="&#xa8;" horiz-adv-x="865" d="M262 1396q2 34 26 57.5t59 24.5q35 0 57.5 -23.5t19.5 -58.5q-2 -33 -27 -56t-58 -24q-35 0 -57 22.5t-20 57.5zM686 1395q2 34 28 58t57 24q35 1 57 -23t20 -59q-2 -34 -27 -56.5t-58 -23.5q-34 0 -56.5 22.5t-20.5 57.5z" />
<glyph unicode="&#xa9;" horiz-adv-x="1598" d="M135 722q22 197 135.5 374.5t289.5 280.5t373 99q179 -2 321 -100.5t212 -274t47 -366.5q-25 -206 -142.5 -384.5t-291.5 -277t-363 -94.5q-184 4 -324 102.5t-210 274.5t-47 366zM219 562q22 -217 160 -356t338 -141q195 -4 368.5 113t269.5 316t75 402 q-16 142 -84.5 254.5t-175 174t-238.5 64.5q-144 3 -279.5 -61t-242 -187.5t-157 -276.5t-34.5 -302zM485 680l8 78q20 188 122.5 298t252.5 108q137 -4 208.5 -87.5t60.5 -226.5h-98q18 221 -175 225q-106 2 -179 -80.5t-90 -217.5l-10 -98q-13 -129 35.5 -211.5 t145.5 -85.5q198 -7 240 224l95 1q-19 -152 -109 -235.5t-230 -79.5q-142 4 -216.5 114t-60.5 274z" />
<glyph unicode="&#xaa;" horiz-adv-x="889" d="M209 900q5 114 98 177.5t253 63.5l137 -1l9 62q4 35 0 67q-14 108 -123 111q-76 2 -131.5 -32t-74.5 -110l-104 6q15 109 102 172t214 61q117 -4 177.5 -79.5t49.5 -197.5l-49 -314q-15 -93 -5 -182l-105 -1q-6 48 -3 95q-99 -108 -227 -108q-103 0 -163.5 59t-54.5 151z M319 905q-5 -59 30 -90t101 -31q113 0 208 105l30 169l-126 1q-107 0 -171 -40.5t-72 -113.5z" />
<glyph unicode="&#xab;" horiz-adv-x="915" d="M106 526l2 19l348 380h114l-342 -395l198 -382h-95zM406 526l2 19l348 380h114l-342 -395l198 -382h-95z" />
<glyph unicode="&#xac;" horiz-adv-x="1093" d="M131 670l19 106h790l-68 -390h-119l50 284h-672z" />
<glyph unicode="&#xad;" horiz-adv-x="578" d="M45 592l18 101h467l-18 -101h-467z" />
<glyph unicode="&#xae;" horiz-adv-x="1603" d="M130 722q25 207 140 382t289.5 275.5t368.5 96.5q177 -2 319.5 -99.5t214 -273.5t48.5 -368q-18 -151 -89 -292.5t-183 -248t-248.5 -162.5t-278.5 -53q-184 4 -324 102.5t-210 274.5t-47 366zM214 562q22 -216 160 -355.5t338 -141.5q143 -3 277.5 60t241.5 187.5 t158.5 276.5t35.5 307q-14 138 -81.5 251.5t-176 176t-240.5 65.5q-143 3 -279 -61t-241 -185.5t-157.5 -273.5t-35.5 -307zM502 321l132 839l244 -1q133 -5 201.5 -66.5t61.5 -173.5q-10 -132 -166 -208q83 -42 92 -140l-1 -62q-10 -76 -9 -109l2 -63l-2 -16h-98 q-5 36 -3 72l6 72l5 44q7 75 -20.5 113.5t-104.5 42.5l-187 1l-55 -345h-98zM668 757l171 -1q82 2 140.5 44.5t67.5 116.5q20 151 -170 152l-159 1z" />
<glyph unicode="&#xaf;" horiz-adv-x="858" d="M220 1359l16 97h652l-15 -97h-653z" />
<glyph unicode="&#xb0;" horiz-adv-x="761" d="M249 1217q4 106 82.5 184t179.5 76q92 -2 153.5 -73t57.5 -169q-4 -106 -80.5 -182t-177.5 -74q-96 2 -157.5 73t-57.5 165zM339 1219q-6 -62 31 -105.5t96 -43.5q67 0 114 47.5t53 115.5q6 61 -28.5 107t-96.5 46q-64 0 -113 -47.5t-56 -119.5z" />
<glyph unicode="&#xb1;" horiz-adv-x="1062" d="M29 0l16 101h813l-16 -101h-813zM100 727l16 102h401l69 438h111l-69 -438h380l-17 -102h-379l-69 -438h-110l69 438h-402z" />
<glyph unicode="&#xb2;" horiz-adv-x="728" d="M103 665l14 80l371 321q110 98 120 181q8 64 -28.5 98.5t-98.5 34.5q-81 1 -131 -43.5t-67 -120.5h-103q16 116 100 184.5t202 66.5q112 -2 176.5 -62t57.5 -157q-7 -115 -156 -244l-63 -54l-242 -198h420l-16 -87h-556z" />
<glyph unicode="&#xb3;" horiz-adv-x="728" d="M122 885h103q-3 -63 40 -103t120 -40q82 0 135.5 40.5t60.5 107.5q13 129 -164 134l-81 1l9 81h76q89 3 144 43q52 38 58 99q6 62 -33.5 96.5t-104.5 34.5q-67 1 -117.5 -33t-68.5 -99l-104 -1q15 103 96.5 163t194.5 58q112 -2 180.5 -60.5t61.5 -155.5 q-7 -118 -169 -186q131 -44 125 -177q-5 -107 -92 -171.5t-212 -62.5q-118 2 -190 64.5t-68 166.5z" />
<glyph unicode="&#xb4;" horiz-adv-x="569" d="M216 1246l230 278l150 -1l-268 -277h-112z" />
<glyph unicode="&#xb5;" horiz-adv-x="1116" d="M-20 -416l260 1498h118l-105 -634l-6 -80v-47q9 -234 192 -241q122 -4 218.5 58.5t126.5 172.5l132 771h119l-188 -1082h-108l27 154q-121 -178 -325 -174q-176 5 -249 126l-94 -522h-118z" />
<glyph unicode="&#xb6;" horiz-adv-x="954" d="M159 980q23 215 175.5 346t375.5 131l228 -1l-253 -1456h-119l91 520l-83 1q-212 2 -324.5 129t-90.5 330z" />
<glyph unicode="&#xb7;" horiz-adv-x="498" d="M178 717q2 35 27 59t60 25q37 0 59.5 -24t20.5 -60q-3 -35 -28.5 -58.5t-60.5 -24.5q-36 -1 -58.5 23t-19.5 60z" />
<glyph unicode="&#xb8;" horiz-adv-x="493" d="M-75 -437l1 79q96 3 153.5 36t65.5 91q9 79 -94 97l-55 8l45 126h90l-22 -66q141 -26 135 -162q-5 -98 -89.5 -152t-229.5 -57z" />
<glyph unicode="&#xb9;" horiz-adv-x="728" d="M235 1260l17 94l328 105h17l-134 -790h-105l115 660z" />
<glyph unicode="&#xba;" horiz-adv-x="904" d="M213 1033l9 88q17 163 118.5 261.5t244.5 94.5q135 -4 209 -100.5t61 -244.5l-10 -99q-19 -154 -117.5 -251t-242.5 -93q-135 4 -209 99.5t-63 244.5zM323 1031q-12 -111 33 -178t135 -69q96 -4 163.5 66t82.5 192l11 91q10 110 -35 177.5t-134 70.5q-100 2 -166.5 -69.5 t-79.5 -188.5z" />
<glyph unicode="&#xbb;" horiz-adv-x="910" d="M30 162l341 394l-197 388h96l224 -382l-2 -20l-348 -380h-114zM340 162l341 394l-197 388h96l224 -382l-2 -20l-348 -380h-114z" />
<glyph unicode="&#xbc;" horiz-adv-x="1449" d="M222 1255l17 94l328 105h17l-134 -790h-105l115 660zM255 183l885 1131l68 -49l-881 -1135zM675 187l4 65l475 537h115l-90 -514h124l-16 -88h-123l-33 -187h-105l34 187h-385zM801 275h273l73 385l-39 -51z" />
<glyph unicode="&#xbd;" horiz-adv-x="1512" d="M208 1255l17 94l328 105h17l-134 -790h-105l115 660zM212 183l885 1131l68 -49l-881 -1135zM734 0l14 80l371 321q110 98 120 181q8 64 -28.5 98.5t-98.5 34.5q-81 1 -131 -43.5t-67 -120.5h-103q16 116 100 184.5t202 66.5q112 -2 176.5 -62t57.5 -157 q-7 -115 -156 -244l-63 -54l-242 -198h420l-16 -87h-556z" />
<glyph unicode="&#xbe;" horiz-adv-x="1552" d="M167 885h103q-3 -63 40 -103t120 -40q82 0 135.5 40.5t60.5 107.5q13 129 -164 134l-81 1l9 81h76q89 3 144 43q52 38 58 99q6 62 -33.5 96.5t-104.5 34.5q-67 1 -117.5 -33t-68.5 -99l-104 -1q15 103 96.5 163t194.5 58q112 -2 180.5 -60.5t61.5 -155.5 q-7 -118 -169 -186q131 -44 125 -177q-5 -107 -92 -171.5t-212 -62.5q-118 2 -190 64.5t-68 166.5zM395 183l885 1131l68 -49l-881 -1135zM786 187l4 65l475 537h115l-90 -514h124l-16 -88h-123l-33 -187h-105l34 187h-385zM912 275h273l73 385l-39 -51z" />
<glyph unicode="&#xbf;" horiz-adv-x="922" d="M-11 -18q18 192 209 367l138 120q79 78 103 218l115 1q-15 -108 -56.5 -181.5t-125.5 -147.5t-105 -94q-142 -134 -158 -282q-13 -119 42 -189.5t164 -72.5q110 -4 189 64t106 194l117 1q-25 -170 -139 -269t-281 -95q-162 4 -248 107t-70 259zM470 1022q3 33 28 56 t58 24q34 1 56.5 -22t19.5 -58q-2 -34 -28 -58t-57 -24q-35 -1 -57 23t-20 59z" />
<glyph unicode="&#xc0;" horiz-adv-x="1251" d="M-79 0l787 1456h117l281 -1456h-121l-76 408h-638l-217 -408h-133zM326 513h563l-144 789zM583 1839h134l142 -279h-100z" />
<glyph unicode="&#xc1;" horiz-adv-x="1251" d="M-79 0l787 1456h117l281 -1456h-121l-76 408h-638l-217 -408h-133zM326 513h563l-144 789zM716 1561l230 278l150 -1l-268 -277h-112z" />
<glyph unicode="&#xc2;" horiz-adv-x="1251" d="M-79 0l787 1456h117l281 -1456h-121l-76 408h-638l-217 -408h-133zM326 513h563l-144 789zM525 1573l1 14l270 254h73l198 -257l-1 -12l-108 1l-129 181l-194 -180z" />
<glyph unicode="&#xc3;" horiz-adv-x="1251" d="M-79 0l787 1456h117l281 -1456h-121l-76 408h-638l-217 -408h-133zM326 513h563l-144 789zM471 1592q14 96 71.5 155.5t140.5 57.5q38 0 69 -17t63.5 -39.5t63.5 -39.5t68 -17q92 0 128 122l84 -5q-14 -100 -70.5 -157.5t-139.5 -57.5q-31 0 -56.5 10.5t-74.5 45t-75 46 t-56 11.5q-46 0 -79.5 -31t-47.5 -87z" />
<glyph unicode="&#xc4;" horiz-adv-x="1251" d="M-79 0l787 1456h117l281 -1456h-121l-76 408h-638l-217 -408h-133zM326 513h563l-144 789zM528 1711q2 34 26 57.5t59 24.5q35 0 57.5 -23.5t19.5 -58.5q-2 -33 -27 -56t-58 -24q-35 0 -57 22.5t-20 57.5zM952 1710q2 34 28 58t57 24q35 1 57 -23t20 -59 q-2 -34 -27 -56.5t-58 -23.5q-34 0 -56.5 22.5t-20.5 57.5z" />
<glyph unicode="&#xc5;" horiz-adv-x="1251" d="M-79 0l787 1456h117l281 -1456h-121l-76 408h-638l-217 -408h-133zM326 513h563l-144 789zM631 1707q2 83 61.5 141t138.5 58q75 0 126.5 -53.5t49.5 -129.5q-2 -80 -60.5 -138t-140.5 -58q-75 0 -126 51.5t-49 128.5zM708 1709q-4 -46 22 -78t72 -32q48 0 85 34.5 t44 87.5q4 48 -23.5 80.5t-72.5 32.5q-47 0 -85 -37t-42 -88z" />
<glyph unicode="&#xc6;" horiz-adv-x="1819" d="M-93 0l1108 1456h844l-18 -102h-673l-72 -545h572l-18 -102h-568l-80 -606h682l-18 -101h-795l51 389h-572l-291 -389h-152zM434 502h504l109 818z" />
<glyph unicode="&#xc7;" horiz-adv-x="1300" d="M127 481q-3 78 7 155l27 176q31 201 124.5 356t227.5 233t295 75q208 -4 325 -132t115 -345l-121 1q0 175 -84 271.5t-241 100.5q-198 5 -337.5 -147.5t-181.5 -421.5l-30 -200l-4 -90q-2 -118 34.5 -219t109.5 -154t175 -56q174 -6 291 87.5t172 281.5l119 1 q-51 -225 -207 -352.5t-381 -121.5q-195 4 -310.5 138.5t-124.5 362.5zM391 -446l1 79q96 3 153.5 36t65.5 91q9 79 -94 97l-55 8l45 126h90l-22 -66q141 -26 135 -162q-5 -98 -89.5 -152t-229.5 -57z" />
<glyph unicode="&#xc8;" horiz-adv-x="1140" d="M73 0l253 1456h877l-19 -105h-754l-96 -549h661l-18 -104h-660l-104 -594h760l-18 -104h-882zM561 1845h134l142 -279h-100z" />
<glyph unicode="&#xc9;" horiz-adv-x="1140" d="M73 0l253 1456h877l-19 -105h-754l-96 -549h661l-18 -104h-660l-104 -594h760l-18 -104h-882zM694 1567l230 278l150 -1l-268 -277h-112z" />
<glyph unicode="&#xca;" horiz-adv-x="1140" d="M73 0l253 1456h877l-19 -105h-754l-96 -549h661l-18 -104h-660l-104 -594h760l-18 -104h-882zM503 1579l1 14l270 254h73l198 -257l-1 -12l-108 1l-129 181l-194 -180z" />
<glyph unicode="&#xcb;" horiz-adv-x="1140" d="M73 0l253 1456h877l-19 -105h-754l-96 -549h661l-18 -104h-660l-104 -594h760l-18 -104h-882zM506 1717q2 34 26 57.5t59 24.5q35 0 57.5 -23.5t19.5 -58.5q-2 -33 -27 -56t-58 -24q-35 0 -57 22.5t-20 57.5zM930 1716q2 34 28 58t57 24q35 1 57 -23t20 -59 q-2 -34 -27 -56.5t-58 -23.5q-34 0 -56.5 22.5t-20.5 57.5z" />
<glyph unicode="&#xcc;" horiz-adv-x="539" d="M99 0l253 1456h122l-253 -1456h-122zM227 1845h134l142 -279h-100z" />
<glyph unicode="&#xcd;" horiz-adv-x="539" d="M99 0l253 1456h122l-253 -1456h-122zM359 1567l230 278l150 -1l-268 -277h-112z" />
<glyph unicode="&#xce;" horiz-adv-x="539" d="M99 0l253 1456h122l-253 -1456h-122zM169 1579l1 14l270 254h73l198 -257l-1 -12l-108 1l-129 181l-194 -180z" />
<glyph unicode="&#xcf;" horiz-adv-x="539" d="M99 0l253 1456h122l-253 -1456h-122zM172 1717q2 34 26 57.5t59 24.5q35 0 57.5 -23.5t19.5 -58.5q-2 -33 -27 -56t-58 -24q-35 0 -57 22.5t-20 57.5zM596 1716q2 34 28 58t57 24q35 1 57 -23t20 -59q-2 -34 -27 -56.5t-58 -23.5q-34 0 -56.5 22.5t-20.5 57.5z" />
<glyph unicode="&#xd0;" horiz-adv-x="1341" d="M47 689l18 102h175l116 665l379 -1q169 0 293 -86.5t179.5 -239t32.5 -335.5l-18 -121q-46 -303 -242 -488t-481 -185h-396l119 689h-175zM243 104l260 -1q153 0 279 70t208.5 197.5t108 288t27 221.5t-6.5 118q-23 160 -122 254t-256 98l-281 1l-98 -560h299l-18 -102 h-298z" />
<glyph unicode="&#xd1;" horiz-adv-x="1420" d="M73 0l253 1456h118l598 -1249l217 1249h121l-252 -1456h-118l-597 1248l-217 -1248h-123zM552 1592q14 96 71.5 155.5t140.5 57.5q38 0 69 -17t63.5 -39.5t63.5 -39.5t68 -17q92 0 128 122l84 -5q-14 -100 -70.5 -157.5t-139.5 -57.5q-31 0 -56.5 10.5t-74.5 45t-75 46 t-56 11.5q-46 0 -79.5 -31t-47.5 -87z" />
<glyph unicode="&#xd2;" horiz-adv-x="1354" d="M124 489q-4 80 7 159l20 138q45 305 220 498q179 197 442 192q134 -3 234.5 -65.5t156.5 -182t61 -262.5q3 -86 -9 -168l-23 -154q-35 -206 -129.5 -360t-229.5 -230.5t-297 -73.5q-204 4 -323.5 141.5t-129.5 367.5zM245 521q0 -202 88.5 -316t249.5 -118 q213 -5 352.5 154t178.5 420l22 148q8 63 9 128q0 122 -38 222t-114.5 153.5t-185.5 56.5q-200 5 -341 -143.5t-186 -401.5q-36 -205 -35 -303zM632 1851h134l142 -279h-100z" />
<glyph unicode="&#xd3;" horiz-adv-x="1354" d="M124 489q-4 80 7 159l20 138q45 305 220 498q179 197 442 192q134 -3 234.5 -65.5t156.5 -182t61 -262.5q3 -86 -9 -168l-23 -154q-35 -206 -129.5 -360t-229.5 -230.5t-297 -73.5q-204 4 -323.5 141.5t-129.5 367.5zM245 521q0 -202 88.5 -316t249.5 -118 q213 -5 352.5 154t178.5 420l22 148q8 63 9 128q0 122 -38 222t-114.5 153.5t-185.5 56.5q-200 5 -341 -143.5t-186 -401.5q-36 -205 -35 -303zM765 1573l230 278l150 -1l-268 -277h-112z" />
<glyph unicode="&#xd4;" horiz-adv-x="1354" d="M124 489q-4 80 7 159l20 138q45 305 220 498q179 197 442 192q134 -3 234.5 -65.5t156.5 -182t61 -262.5q3 -86 -9 -168l-23 -154q-35 -206 -129.5 -360t-229.5 -230.5t-297 -73.5q-204 4 -323.5 141.5t-129.5 367.5zM245 521q0 -202 88.5 -316t249.5 -118 q213 -5 352.5 154t178.5 420l22 148q8 63 9 128q0 122 -38 222t-114.5 153.5t-185.5 56.5q-200 5 -341 -143.5t-186 -401.5q-36 -205 -35 -303zM574 1585l1 14l270 254h73l198 -257l-1 -12l-108 1l-129 181l-194 -180z" />
<glyph unicode="&#xd5;" horiz-adv-x="1354" d="M124 489q-4 80 7 159l20 138q45 305 220 498q179 197 442 192q134 -3 234.5 -65.5t156.5 -182t61 -262.5q3 -86 -9 -168l-23 -154q-35 -206 -129.5 -360t-229.5 -230.5t-297 -73.5q-204 4 -323.5 141.5t-129.5 367.5zM245 521q0 -202 88.5 -316t249.5 -118 q213 -5 352.5 154t178.5 420l22 148q8 63 9 128q0 122 -38 222t-114.5 153.5t-185.5 56.5q-200 5 -341 -143.5t-186 -401.5q-36 -205 -35 -303zM520 1604q14 96 71.5 155.5t140.5 57.5q38 0 69 -17t63.5 -39.5t63.5 -39.5t68 -17q92 0 128 122l84 -5q-14 -100 -70.5 -157.5 t-139.5 -57.5q-31 0 -56.5 10.5t-74.5 45t-75 46t-56 11.5q-46 0 -79.5 -31t-47.5 -87z" />
<glyph unicode="&#xd6;" horiz-adv-x="1354" d="M124 489q-4 80 7 159l20 138q45 305 220 498q179 197 442 192q134 -3 234.5 -65.5t156.5 -182t61 -262.5q3 -86 -9 -168l-23 -154q-35 -206 -129.5 -360t-229.5 -230.5t-297 -73.5q-204 4 -323.5 141.5t-129.5 367.5zM245 521q0 -202 88.5 -316t249.5 -118 q213 -5 352.5 154t178.5 420l22 148q8 63 9 128q0 122 -38 222t-114.5 153.5t-185.5 56.5q-200 5 -341 -143.5t-186 -401.5q-36 -205 -35 -303zM577 1723q2 34 26 57.5t59 24.5q35 0 57.5 -23.5t19.5 -58.5q-2 -33 -27 -56t-58 -24q-35 0 -57 22.5t-20 57.5zM1001 1722 q2 34 28 58t57 24q35 1 57 -23t20 -59q-2 -34 -27 -56.5t-58 -23.5q-34 0 -56.5 22.5t-20.5 57.5z" />
<glyph unicode="&#xd7;" horiz-adv-x="1050" d="M17 184l411 366l-273 350l87 75l270 -350l394 349l68 -86l-394 -349l285 -366l-86 -74l-284 364l-410 -363z" />
<glyph unicode="&#xd8;" horiz-adv-x="1354" d="M41 -82l177 218q-101 156 -98 380q1 97 37 307t144 372t266 232q116 52 246 49q96 -2 185 -35.5t155 -104.5l135 168h111l-192 -237q48 -109 58 -227q10 -119 -7 -234l-22 -143q-33 -214 -128.5 -371.5t-231 -236t-294.5 -76.5h-7q-178 4 -294 98l-128 -159h-112z M241 544q-10 -183 50 -309l790 1005q-93 126 -273 130q-207 5 -349 -151.5t-184 -423.5l-28 -181zM349 168q88 -77 233 -82q132 -3 241 61t186 196.5t106 324.5t32 233t4 85q0 88 -24 174z" />
<glyph unicode="&#xd9;" horiz-adv-x="1316" d="M140 469l169 987h121l-168 -988q-21 -169 62 -273.5t244 -110.5q168 -6 289 93t154 275l172 1004h123l-169 -985q-36 -230 -193 -363t-382 -129q-141 3 -243.5 65t-149 174t-29.5 251zM621 1839h134l142 -279h-100z" />
<glyph unicode="&#xda;" horiz-adv-x="1316" d="M140 469l169 987h121l-168 -988q-21 -169 62 -273.5t244 -110.5q168 -6 289 93t154 275l172 1004h123l-169 -985q-36 -230 -193 -363t-382 -129q-141 3 -243.5 65t-149 174t-29.5 251zM754 1561l230 278l150 -1l-268 -277h-112z" />
<glyph unicode="&#xdb;" horiz-adv-x="1316" d="M140 469l169 987h121l-168 -988q-21 -169 62 -273.5t244 -110.5q168 -6 289 93t154 275l172 1004h123l-169 -985q-36 -230 -193 -363t-382 -129q-141 3 -243.5 65t-149 174t-29.5 251zM563 1573l1 14l270 254h73l198 -257l-1 -12l-108 1l-129 181l-194 -180z" />
<glyph unicode="&#xdc;" horiz-adv-x="1316" d="M140 469l169 987h121l-168 -988q-21 -169 62 -273.5t244 -110.5q168 -6 289 93t154 275l172 1004h123l-169 -985q-36 -230 -193 -363t-382 -129q-141 3 -243.5 65t-149 174t-29.5 251zM566 1711q2 34 26 57.5t59 24.5q35 0 57.5 -23.5t19.5 -58.5q-2 -33 -27 -56t-58 -24 q-35 0 -57 22.5t-20 57.5zM990 1710q2 34 28 58t57 24q35 1 57 -23t20 -59q-2 -34 -27 -56.5t-58 -23.5q-34 0 -56.5 22.5t-20.5 57.5z" />
<glyph unicode="&#xdd;" horiz-adv-x="1199" d="M174 1456h137l289 -792l568 792h148l-673 -914l-94 -542h-122l97 555zM685 1555l230 278l150 -1l-268 -277h-112z" />
<glyph unicode="&#xde;" horiz-adv-x="1188" d="M72 0l253 1456h119l-53 -304l305 -1q123 -3 217.5 -54t140 -143t34.5 -209q-12 -128 -81.5 -223.5t-184.5 -147t-254 -51.5l-320 1l-57 -324h-119zM265 425l307 -1q157 0 268 88.5t128 231.5q16 134 -60.5 218t-213.5 88l-320 1z" />
<glyph unicode="&#xdf;" horiz-adv-x="1174" d="M41 0l193 1127q28 200 137 311t274 106q140 -4 221 -87t70 -211q-4 -47 -19.5 -89t-71 -134.5t-69.5 -129t-20 -79.5q-8 -58 20.5 -112.5t102.5 -128t106.5 -133.5t27.5 -124q-9 -149 -128 -245t-282 -92q-80 0 -161.5 21.5t-133.5 61.5l46 99q105 -80 239 -82 q117 -2 203.5 64.5t99.5 171.5q7 60 -22 115.5t-103.5 127.5t-106.5 132.5t-26 125.5q5 49 23 92.5t65.5 120.5t66 119.5t24.5 91.5q10 83 -37 141.5t-133 62.5q-118 5 -195 -77t-100 -239l-192 -1128h-119z" />
<glyph unicode="&#xe0;" horiz-adv-x="1074" d="M46 279q8 107 73.5 185.5t186.5 122t271 43.5l221 -1l18 124q12 111 -48 178t-177 71q-118 2 -205.5 -58.5t-109.5 -159.5h-117q20 142 146 231.5t298 87.5q167 -4 257.5 -101t73.5 -252l-90 -544l-8 -87q-3 -54 8 -107l-2 -12h-123q-5 38 -3 76l9 75 q-75 -81 -171.5 -127t-208.5 -44q-137 2 -222.5 86.5t-76.5 212.5zM168 289q-9 -88 46.5 -145t150.5 -59q110 -4 210.5 52.5t166.5 160.5l41 239l-191 1q-182 0 -297 -64.5t-127 -184.5zM467 1524h134l142 -279h-100z" />
<glyph unicode="&#xe1;" horiz-adv-x="1074" d="M46 279q8 107 73.5 185.5t186.5 122t271 43.5l221 -1l18 124q12 111 -48 178t-177 71q-118 2 -205.5 -58.5t-109.5 -159.5h-117q20 142 146 231.5t298 87.5q167 -4 257.5 -101t73.5 -252l-90 -544l-8 -87q-3 -54 8 -107l-2 -12h-123q-5 38 -3 76l9 75 q-75 -81 -171.5 -127t-208.5 -44q-137 2 -222.5 86.5t-76.5 212.5zM168 289q-9 -88 46.5 -145t150.5 -59q110 -4 210.5 52.5t166.5 160.5l41 239l-191 1q-182 0 -297 -64.5t-127 -184.5zM600 1246l230 278l150 -1l-268 -277h-112z" />
<glyph unicode="&#xe2;" horiz-adv-x="1074" d="M46 279q8 107 73.5 185.5t186.5 122t271 43.5l221 -1l18 124q12 111 -48 178t-177 71q-118 2 -205.5 -58.5t-109.5 -159.5h-117q20 142 146 231.5t298 87.5q167 -4 257.5 -101t73.5 -252l-90 -544l-8 -87q-3 -54 8 -107l-2 -12h-123q-5 38 -3 76l9 75 q-75 -81 -171.5 -127t-208.5 -44q-137 2 -222.5 86.5t-76.5 212.5zM168 289q-9 -88 46.5 -145t150.5 -59q110 -4 210.5 52.5t166.5 160.5l41 239l-191 1q-182 0 -297 -64.5t-127 -184.5zM409 1258l1 14l270 254h73l198 -257l-1 -12l-108 1l-129 181l-194 -180z" />
<glyph unicode="&#xe3;" horiz-adv-x="1074" d="M46 279q8 107 73.5 185.5t186.5 122t271 43.5l221 -1l18 124q12 111 -48 178t-177 71q-118 2 -205.5 -58.5t-109.5 -159.5h-117q20 142 146 231.5t298 87.5q167 -4 257.5 -101t73.5 -252l-90 -544l-8 -87q-3 -54 8 -107l-2 -12h-123q-5 38 -3 76l9 75 q-75 -81 -171.5 -127t-208.5 -44q-137 2 -222.5 86.5t-76.5 212.5zM168 289q-9 -88 46.5 -145t150.5 -59q110 -4 210.5 52.5t166.5 160.5l41 239l-191 1q-182 0 -297 -64.5t-127 -184.5zM355 1277q14 96 71.5 155.5t140.5 57.5q38 0 69 -17t63.5 -39.5t63.5 -39.5t68 -17 q92 0 128 122l84 -5q-14 -100 -70.5 -157.5t-139.5 -57.5q-31 0 -56.5 10.5t-74.5 45t-75 46t-56 11.5q-46 0 -79.5 -31t-47.5 -87z" />
<glyph unicode="&#xe4;" horiz-adv-x="1074" d="M46 279q8 107 73.5 185.5t186.5 122t271 43.5l221 -1l18 124q12 111 -48 178t-177 71q-118 2 -205.5 -58.5t-109.5 -159.5h-117q20 142 146 231.5t298 87.5q167 -4 257.5 -101t73.5 -252l-90 -544l-8 -87q-3 -54 8 -107l-2 -12h-123q-5 38 -3 76l9 75 q-75 -81 -171.5 -127t-208.5 -44q-137 2 -222.5 86.5t-76.5 212.5zM168 289q-9 -88 46.5 -145t150.5 -59q110 -4 210.5 52.5t166.5 160.5l41 239l-191 1q-182 0 -297 -64.5t-127 -184.5zM412 1396q2 34 26 57.5t59 24.5q35 0 57.5 -23.5t19.5 -58.5q-2 -33 -27 -56t-58 -24 q-35 0 -57 22.5t-20 57.5zM836 1395q2 34 28 58t57 24q35 1 57 -23t20 -59q-2 -34 -27 -56.5t-58 -23.5q-34 0 -56.5 22.5t-20.5 57.5z" />
<glyph unicode="&#xe5;" horiz-adv-x="1074" d="M46 279q8 107 73.5 185.5t186.5 122t271 43.5l221 -1l18 124q12 111 -48 178t-177 71q-118 2 -205.5 -58.5t-109.5 -159.5h-117q20 142 146 231.5t298 87.5q167 -4 257.5 -101t73.5 -252l-90 -544l-8 -87q-3 -54 8 -107l-2 -12h-123q-5 38 -3 76l9 75 q-75 -81 -171.5 -127t-208.5 -44q-137 2 -222.5 86.5t-76.5 212.5zM168 289q-9 -88 46.5 -145t150.5 -59q110 -4 210.5 52.5t166.5 160.5l41 239l-191 1q-182 0 -297 -64.5t-127 -184.5zM515 1392q2 83 61.5 141t138.5 58q75 0 126.5 -53.5t49.5 -129.5q-2 -80 -60.5 -138 t-140.5 -58q-75 0 -126 51.5t-49 128.5zM592 1394q-4 -46 22 -78t72 -32q48 0 85 34.5t44 87.5q4 48 -23.5 80.5t-72.5 32.5q-47 0 -85 -37t-42 -88z" />
<glyph unicode="&#xe6;" horiz-adv-x="1690" d="M33 285q12 164 141 256t336 92l255 -1l12 89q14 130 -36 203t-158 77q-123 2 -211.5 -60.5t-111.5 -174.5l-115 12q20 149 144 239t302 85q119 -2 198.5 -59t100.5 -153q165 216 387 212q181 -4 273.5 -132.5t67.5 -331.5l-15 -100h-732l-5 -30q-11 -77 -3 -152 q12 -124 84.5 -197.5t191.5 -76.5q169 -4 331 117l39 -89q-151 -133 -375 -129q-122 2 -216 56t-137 149q-81 -106 -197.5 -157.5t-247.5 -48.5q-148 2 -230 85.5t-73 219.5zM153 281q-9 -95 48 -148t157 -53q87 -2 177.5 39t161.5 116l53 301l-240 1q-144 0 -244.5 -70 t-112.5 -186zM884 636h615q14 93 5 155q-15 97 -76.5 152t-158.5 58q-128 3 -227.5 -88.5t-157.5 -276.5z" />
<glyph unicode="&#xe7;" horiz-adv-x="1033" d="M85 517l4 43q12 105 51.5 204t105.5 175.5t157.5 121t206.5 41.5q166 -4 264 -112t92 -274l-113 1q2 125 -65 202t-183 81q-124 4 -219 -72t-143 -215t-45 -295q3 -161 72 -247.5t195 -90.5q118 -4 208.5 65.5t120.5 187.5h113q-30 -161 -157.5 -259.5t-290.5 -94.5 q-131 3 -220 72t-128.5 191t-25.5 275zM267 -446l1 79q96 3 153.5 36t65.5 91q9 79 -94 97l-55 8l45 126h90l-22 -66q141 -26 135 -162q-5 -98 -89.5 -152t-229.5 -57z" />
<glyph unicode="&#xe8;" horiz-adv-x="1036" d="M79 507l3 34q14 150 89 285.5t190 207t246 68.5q121 -2 204.5 -66t121.5 -178t24 -252l-8 -73h-749l-3 -24q-15 -109 16 -208.5t101.5 -158t169.5 -60.5q96 -3 173 37t142 107l70 -57q-73 -94 -173.5 -142.5t-220.5 -46.5q-130 2 -225 72.5t-139.5 192t-31.5 262.5z M213 635l628 -1l3 15q18 142 -50 244.5t-193 106.5q-130 5 -233 -92t-155 -273zM443 1524h134l142 -279h-100z" />
<glyph unicode="&#xe9;" horiz-adv-x="1036" d="M79 507l3 34q14 150 89 285.5t190 207t246 68.5q121 -2 204.5 -66t121.5 -178t24 -252l-8 -73h-749l-3 -24q-15 -109 16 -208.5t101.5 -158t169.5 -60.5q96 -3 173 37t142 107l70 -57q-73 -94 -173.5 -142.5t-220.5 -46.5q-130 2 -225 72.5t-139.5 192t-31.5 262.5z M213 635l628 -1l3 15q18 142 -50 244.5t-193 106.5q-130 5 -233 -92t-155 -273zM576 1246l230 278l150 -1l-268 -277h-112z" />
<glyph unicode="&#xea;" horiz-adv-x="1036" d="M79 507l3 34q14 150 89 285.5t190 207t246 68.5q121 -2 204.5 -66t121.5 -178t24 -252l-8 -73h-749l-3 -24q-15 -109 16 -208.5t101.5 -158t169.5 -60.5q96 -3 173 37t142 107l70 -57q-73 -94 -173.5 -142.5t-220.5 -46.5q-130 2 -225 72.5t-139.5 192t-31.5 262.5z M213 635l628 -1l3 15q18 142 -50 244.5t-193 106.5q-130 5 -233 -92t-155 -273zM385 1258l1 14l270 254h73l198 -257l-1 -12l-108 1l-129 181l-194 -180z" />
<glyph unicode="&#xeb;" horiz-adv-x="1036" d="M79 507l3 34q14 150 89 285.5t190 207t246 68.5q121 -2 204.5 -66t121.5 -178t24 -252l-8 -73h-749l-3 -24q-15 -109 16 -208.5t101.5 -158t169.5 -60.5q96 -3 173 37t142 107l70 -57q-73 -94 -173.5 -142.5t-220.5 -46.5q-130 2 -225 72.5t-139.5 192t-31.5 262.5z M213 635l628 -1l3 15q18 142 -50 244.5t-193 106.5q-130 5 -233 -92t-155 -273zM388 1396q2 34 26 57.5t59 24.5q35 0 57.5 -23.5t19.5 -58.5q-2 -33 -27 -56t-58 -24q-35 0 -57 22.5t-20 57.5zM812 1395q2 34 28 58t57 24q35 1 57 -23t20 -59q-2 -34 -27 -56.5t-58 -23.5 q-34 0 -56.5 22.5t-20.5 57.5z" />
<glyph unicode="&#xec;" horiz-adv-x="452" d="M57 0l189 1082h119l-188 -1082h-120zM127 1512h134l142 -279h-100z" />
<glyph unicode="&#xed;" horiz-adv-x="452" d="M57 0l189 1082h119l-188 -1082h-120zM259 1234l230 278l150 -1l-268 -277h-112z" />
<glyph unicode="&#xee;" horiz-adv-x="452" d="M57 0l189 1082h119l-188 -1082h-120zM69 1246l1 14l270 254h73l198 -257l-1 -12l-108 1l-129 181l-194 -180z" />
<glyph unicode="&#xef;" horiz-adv-x="452" d="M57 0l189 1082h119l-188 -1082h-120zM72 1384q2 34 26 57.5t59 24.5q35 0 57.5 -23.5t19.5 -58.5q-2 -33 -27 -56t-58 -24q-35 0 -57 22.5t-20 57.5zM496 1383q2 34 28 58t57 24q35 1 57 -23t20 -59q-2 -34 -27 -56.5t-58 -23.5q-34 0 -56.5 22.5t-20.5 57.5z" />
<glyph unicode="&#xf0;" horiz-adv-x="1165" d="M125 458q14 146 81.5 263.5t176.5 183t242 61.5q88 -2 168 -38t134 -107q4 238 -120 418l-244 -139l-40 79l221 125q-110 104 -303 172l49 101q218 -73 362 -210l211 121l40 -79l-191 -108q137 -216 133 -501q-3 -119 -27.5 -273t-93 -278t-165.5 -193q-114 -81 -253 -77 q-123 4 -214 67.5t-135 173.5t-32 238zM245 458q-18 -154 57.5 -263t213.5 -113q150 -5 253 125.5t132 350.5l9 68l6 60q-32 84 -105.5 129t-171.5 47q-158 4 -265.5 -107.5t-128.5 -296.5z" />
<glyph unicode="&#xf1;" horiz-adv-x="1101" d="M46 0l188 1082h114l-36 -185q72 100 166.5 153.5t202.5 51.5q156 -4 227 -109t50 -289l-118 -704h-118l118 706q6 57 2 110q-17 178 -194 183q-105 2 -196 -62.5t-160 -194.5l-128 -742h-118zM351 1276q14 96 71.5 155.5t140.5 57.5q38 0 69 -17t63.5 -39.5t63.5 -39.5 t68 -17q92 0 128 122l84 -5q-14 -100 -70.5 -157.5t-139.5 -57.5q-31 0 -56.5 10.5t-74.5 45t-75 46t-56 11.5q-46 0 -79.5 -31t-47.5 -87z" />
<glyph unicode="&#xf2;" horiz-adv-x="1123" d="M69 460l3 57l3 34q18 157 96 287.5t194.5 198.5t252.5 65q134 -2 228.5 -73.5t138 -195t29.5 -273.5l-2 -19q-30 -256 -181.5 -411t-363.5 -150q-182 3 -291 134t-107 346zM191 517q-13 -119 17.5 -219.5t97.5 -157.5t167 -60q108 -2 197.5 55t147.5 161t75 230l3 33 q18 193 -59.5 315.5t-224.5 125.5q-160 5 -276.5 -123.5t-142.5 -341.5zM447 1524h134l142 -279h-100z" />
<glyph unicode="&#xf3;" horiz-adv-x="1123" d="M69 460l3 57l3 34q18 157 96 287.5t194.5 198.5t252.5 65q134 -2 228.5 -73.5t138 -195t29.5 -273.5l-2 -19q-30 -256 -181.5 -411t-363.5 -150q-182 3 -291 134t-107 346zM191 517q-13 -119 17.5 -219.5t97.5 -157.5t167 -60q108 -2 197.5 55t147.5 161t75 230l3 33 q18 193 -59.5 315.5t-224.5 125.5q-160 5 -276.5 -123.5t-142.5 -341.5zM580 1246l230 278l150 -1l-268 -277h-112z" />
<glyph unicode="&#xf4;" horiz-adv-x="1123" d="M69 460l3 57l3 34q18 157 96 287.5t194.5 198.5t252.5 65q134 -2 228.5 -73.5t138 -195t29.5 -273.5l-2 -19q-30 -256 -181.5 -411t-363.5 -150q-182 3 -291 134t-107 346zM191 517q-13 -119 17.5 -219.5t97.5 -157.5t167 -60q108 -2 197.5 55t147.5 161t75 230l3 33 q18 193 -59.5 315.5t-224.5 125.5q-160 5 -276.5 -123.5t-142.5 -341.5zM389 1258l1 14l270 254h73l198 -257l-1 -12l-108 1l-129 181l-194 -180z" />
<glyph unicode="&#xf5;" horiz-adv-x="1123" d="M69 460l3 57l3 34q18 157 96 287.5t194.5 198.5t252.5 65q134 -2 228.5 -73.5t138 -195t29.5 -273.5l-2 -19q-30 -256 -181.5 -411t-363.5 -150q-182 3 -291 134t-107 346zM191 517q-13 -119 17.5 -219.5t97.5 -157.5t167 -60q108 -2 197.5 55t147.5 161t75 230l3 33 q18 193 -59.5 315.5t-224.5 125.5q-160 5 -276.5 -123.5t-142.5 -341.5zM335 1276q14 96 71.5 155.5t140.5 57.5q38 0 69 -17t63.5 -39.5t63.5 -39.5t68 -17q92 0 128 122l84 -5q-14 -100 -70.5 -157.5t-139.5 -57.5q-31 0 -56.5 10.5t-74.5 45t-75 46t-56 11.5 q-46 0 -79.5 -31t-47.5 -87z" />
<glyph unicode="&#xf6;" horiz-adv-x="1123" d="M69 460l3 57l3 34q18 157 96 287.5t194.5 198.5t252.5 65q134 -2 228.5 -73.5t138 -195t29.5 -273.5l-2 -19q-30 -256 -181.5 -411t-363.5 -150q-182 3 -291 134t-107 346zM191 517q-13 -119 17.5 -219.5t97.5 -157.5t167 -60q108 -2 197.5 55t147.5 161t75 230l3 33 q18 193 -59.5 315.5t-224.5 125.5q-160 5 -276.5 -123.5t-142.5 -341.5zM392 1396q2 34 26 57.5t59 24.5q35 0 57.5 -23.5t19.5 -58.5q-2 -33 -27 -56t-58 -24q-35 0 -57 22.5t-20 57.5zM816 1395q2 34 28 58t57 24q35 1 57 -23t20 -59q-2 -34 -27 -56.5t-58 -23.5 q-34 0 -56.5 22.5t-20.5 57.5z" />
<glyph unicode="&#xf7;" horiz-adv-x="1139" d="M76 644l21 116h971l-21 -116h-971zM426 291q2 35 27 59t60 25q36 1 59.5 -23.5t20.5 -60.5q-3 -35 -28.5 -58t-60.5 -24t-58 22.5t-20 59.5zM564 1088q2 35 27 59t60 25q36 1 59.5 -23.5t20.5 -60.5q-3 -35 -28.5 -58.5t-60.5 -24.5q-38 0 -60 24.5t-18 58.5z" />
<glyph unicode="&#xf8;" horiz-adv-x="1116" d="M61 -139l137 204q-122 122 -129 331q-6 196 65 360.5t203.5 257.5t293.5 90q110 -4 202 -50l107 160l100 -1l-139 -205q114 -125 120 -328q3 -205 -68 -364.5t-203 -250t-291 -87.5q-98 1 -190 43l-108 -161zM184 425q-3 -163 73 -261l518 796q-71 42 -150 43 q-123 3 -223.5 -72.5t-157.5 -210t-60 -295.5zM324 112q65 -32 140 -34q185 -4 310 157t131 414q3 151 -65 255z" />
<glyph unicode="&#xf9;" horiz-adv-x="1101" d="M126 389l116 693h118l-115 -696q-6 -54 -1 -107q7 -92 55 -142t132 -53q120 -5 222 55.5t132 158.5l134 784h120l-188 -1082h-116l29 136q-129 -162 -356 -156q-153 3 -228 110.5t-54 298.5zM461 1524h134l142 -279h-100z" />
<glyph unicode="&#xfa;" horiz-adv-x="1101" d="M126 389l116 693h118l-115 -696q-6 -54 -1 -107q7 -92 55 -142t132 -53q120 -5 222 55.5t132 158.5l134 784h120l-188 -1082h-116l29 136q-129 -162 -356 -156q-153 3 -228 110.5t-54 298.5zM594 1246l230 278l150 -1l-268 -277h-112z" />
<glyph unicode="&#xfb;" horiz-adv-x="1101" d="M126 389l116 693h118l-115 -696q-6 -54 -1 -107q7 -92 55 -142t132 -53q120 -5 222 55.5t132 158.5l134 784h120l-188 -1082h-116l29 136q-129 -162 -356 -156q-153 3 -228 110.5t-54 298.5zM403 1258l1 14l270 254h73l198 -257l-1 -12l-108 1l-129 181l-194 -180z" />
<glyph unicode="&#xfc;" horiz-adv-x="1101" d="M126 389l116 693h118l-115 -696q-6 -54 -1 -107q7 -92 55 -142t132 -53q120 -5 222 55.5t132 158.5l134 784h120l-188 -1082h-116l29 136q-129 -162 -356 -156q-153 3 -228 110.5t-54 298.5zM406 1396q2 34 26 57.5t59 24.5q35 0 57.5 -23.5t19.5 -58.5q-2 -33 -27 -56 t-58 -24q-35 0 -57 22.5t-20 57.5zM830 1395q2 34 28 58t57 24q35 1 57 -23t20 -59q-2 -34 -27 -56.5t-58 -23.5q-34 0 -56.5 22.5t-20.5 57.5z" />
<glyph unicode="&#xfd;" horiz-adv-x="954" d="M-88 -424l12 98l60 -7q168 -7 265 198l76 151l-209 1066h125l167 -906l463 906h133l-660 -1256q-73 -146 -154.5 -207t-181.5 -59q-38 2 -96 16zM536 1246l230 278l150 -1l-268 -277h-112z" />
<glyph unicode="&#xfe;" horiz-adv-x="1126" d="M-23 -416l339 1952h119l-112 -604q140 176 349 170q156 -4 240 -116t86 -306q0 -63 -6 -122l-2 -16q-36 -263 -165 -416q-129 -152 -321 -147q-93 2 -175 39.5t-133 117.5l-100 -552h-119zM216 269q32 -91 101.5 -139t166.5 -50q151 -5 253 116t136 362l6 95 q3 160 -57.5 251t-181.5 95q-105 2 -190.5 -51.5t-144.5 -155.5z" />
<glyph unicode="&#xff;" horiz-adv-x="954" d="M-88 -424l12 98l60 -7q168 -7 265 198l76 151l-209 1066h125l167 -906l463 906h133l-660 -1256q-73 -146 -154.5 -207t-181.5 -59q-38 2 -96 16zM348 1396q2 34 26 57.5t59 24.5q35 0 57.5 -23.5t19.5 -58.5q-2 -33 -27 -56t-58 -24q-35 0 -57 22.5t-20 57.5zM772 1395 q2 34 28 58t57 24q35 1 57 -23t20 -59q-2 -34 -27 -56.5t-58 -23.5q-34 0 -56.5 22.5t-20.5 57.5z" />
<glyph unicode="&#x152;" horiz-adv-x="1866" d="M108 576l48 299q45 280 214 442t403 160l80 -2l223 -19h823l-18 -105h-755l-95 -549h661l-19 -104h-660l-103 -594h760l-19 -104h-812l-238 -19h-66q-149 4 -253.5 83t-150 215.5t-23.5 296.5zM227 402q15 -145 97 -230t216 -89q100 -3 243 11l223 1267q-118 16 -236 16 q-192 2 -325 -134.5t-170 -373.5l-46 -294q-11 -87 -2 -173z" />
<glyph unicode="&#x153;" horiz-adv-x="1845" d="M84 517l2 18q31 258 182.5 415t366.5 152q137 -4 235 -77.5t133 -194.5q85 134 196 204.5t235 68.5q183 -6 276 -136t69 -327l-15 -102h-738q-16 -98 -7 -174q14 -126 83 -202t179 -80q187 -6 336 117l43 -82q-146 -140 -383 -136q-124 2 -224 74.5t-136 191.5 q-83 -133 -199.5 -202.5t-251.5 -65.5q-133 4 -224.5 74.5t-132.5 194.5t-25 269zM200 417q3 -152 75 -242.5t198 -94.5q131 -4 234.5 80.5t156 238t35.5 310.5q-16 134 -86.5 211t-184.5 81q-121 4 -219 -69t-156 -212t-53 -303zM1040 639h620l5 31q18 141 -48.5 234 t-189.5 97q-129 3 -230.5 -93t-156.5 -269z" />
<glyph unicode="&#x178;" horiz-adv-x="1199" d="M174 1456h137l289 -792l568 792h148l-673 -914l-94 -542h-122l97 555zM497 1705q2 34 26 57.5t59 24.5q35 0 57.5 -23.5t19.5 -58.5q-2 -33 -27 -56t-58 -24q-35 0 -57 22.5t-20 57.5zM921 1704q2 34 28 58t57 24q35 1 57 -23t20 -59q-2 -34 -27 -56.5t-58 -23.5 q-34 0 -56.5 22.5t-20.5 57.5z" />
<glyph unicode="&#x2c6;" horiz-adv-x="864" d="M270 1258l1 14l270 254h73l198 -257l-1 -12l-108 1l-129 181l-194 -180z" />
<glyph unicode="&#x2dc;" horiz-adv-x="874" d="M205 1268q14 96 71.5 155.5t140.5 57.5q38 0 69 -17t63.5 -39.5t63.5 -39.5t68 -17q92 0 128 122l84 -5q-14 -100 -70.5 -157.5t-139.5 -57.5q-31 0 -56.5 10.5t-74.5 45t-75 46t-56 11.5q-46 0 -79.5 -31t-47.5 -87z" />
<glyph unicode="&#x2000;" horiz-adv-x="953" />
<glyph unicode="&#x2001;" horiz-adv-x="1906" />
<glyph unicode="&#x2002;" horiz-adv-x="953" />
<glyph unicode="&#x2003;" horiz-adv-x="1906" />
<glyph unicode="&#x2004;" horiz-adv-x="635" />
<glyph unicode="&#x2005;" horiz-adv-x="476" />
<glyph unicode="&#x2006;" horiz-adv-x="317" />
<glyph unicode="&#x2007;" horiz-adv-x="317" />
<glyph unicode="&#x2008;" horiz-adv-x="238" />
<glyph unicode="&#x2009;" horiz-adv-x="381" />
<glyph unicode="&#x200a;" horiz-adv-x="105" />
<glyph unicode="&#x2010;" horiz-adv-x="578" d="M45 592l18 101h467l-18 -101h-467z" />
<glyph unicode="&#x2011;" horiz-adv-x="578" d="M45 592l18 101h467l-18 -101h-467z" />
<glyph unicode="&#x2012;" horiz-adv-x="578" d="M45 592l18 101h467l-18 -101h-467z" />
<glyph unicode="&#x2013;" horiz-adv-x="1304" d="M170 686l22 102h976l-23 -102h-975z" />
<glyph unicode="&#x2014;" horiz-adv-x="1543" d="M143 686l30 102h1301l-30 -102h-1301z" />
<glyph unicode="&#x2018;" horiz-adv-x="363" d="M184 1121l17 109q30 192 188 325l69 -54q-105 -121 -132 -244l-24 -136h-118z" />
<glyph unicode="&#x2019;" horiz-adv-x="363" d="M156 1153q106 124 132 249l24 134h117l-18 -114q-31 -196 -184 -325z" />
<glyph unicode="&#x201a;" horiz-adv-x="352" d="M-95 -177q103 119 130 243l25 139h118l-18 -120q-33 -186 -188 -317z" />
<glyph unicode="&#x201c;" horiz-adv-x="604" d="M185 1121l17 109q30 192 188 325l69 -54q-105 -121 -132 -244l-24 -136h-118zM428 1121l17 109q30 192 188 325l69 -54q-105 -121 -132 -244l-24 -136h-118z" />
<glyph unicode="&#x201d;" horiz-adv-x="608" d="M162 1153q106 124 132 249l24 134h117l-18 -114q-31 -196 -184 -325zM399 1153q106 124 132 249l24 134h117l-18 -114q-31 -196 -184 -325z" />
<glyph unicode="&#x201e;" horiz-adv-x="585" d="M-97 -186q112 133 136 273l26 149h118l-23 -146q-32 -197 -190 -331zM131 -185q105 123 132 260l28 161h119l-26 -165q-33 -184 -177 -313z" />
<glyph unicode="&#x2022;" horiz-adv-x="652" d="M164 710l1 35q6 83 59.5 134.5t133.5 51.5q76 0 121.5 -47.5t45.5 -128.5l-1 -37q-6 -81 -58.5 -130.5t-133.5 -49.5q-76 0 -122 48t-46 124z" />
<glyph unicode="&#x2026;" horiz-adv-x="1284" d="M68 72q3 35 28.5 59.5t60.5 25.5q36 1 59 -24t20 -61q-2 -35 -27.5 -57.5t-60.5 -23.5t-58.5 22t-21.5 59zM466 72q3 35 28.5 59.5t60.5 25.5q36 1 59 -24t20 -61q-2 -35 -27.5 -57.5t-60.5 -23.5t-58.5 22t-21.5 59zM846 72q3 35 28.5 59.5t60.5 25.5q36 1 59 -24 t20 -61q-2 -35 -27.5 -57.5t-60.5 -23.5t-58.5 22t-21.5 59z" />
<glyph unicode="&#x202f;" horiz-adv-x="381" />
<glyph unicode="&#x2039;" horiz-adv-x="601" d="M95 545l2 19l348 380h114l-342 -395l198 -382h-95z" />
<glyph unicode="&#x203a;" horiz-adv-x="601" d="M13 162l341 394l-197 388h96l224 -382l-2 -20l-348 -380h-114z" />
<glyph unicode="&#x205f;" horiz-adv-x="476" />
<glyph unicode="&#x20ac;" d="M73 563l16 89h185l29 164h-187l17 91l181 -5l1 8q54 270 212 419.5t401 147.5q102 -2 229 -33l-24 -108q-105 35 -208 37q-187 3 -310.5 -111t-176.5 -349l-2 -12l412 5l-17 -90h-405l-30 -164h408l-16 -89h-405l-3 -18q-12 -88 -1 -170q16 -133 98.5 -210t217.5 -80 q97 -2 221 32l-1 -107q-119 -30 -226 -28q-151 1 -257 74t-151 203.5t-20 285.5l4 19z" />
<glyph unicode="&#x2122;" horiz-adv-x="1236" d="M241 1387l8 69h382l-8 -69h-157l-79 -468h-73l78 468h-151zM619 919l91 537h88l80 -426l228 426h93l-92 -537h-72l68 401l-212 -400l-51 -1l-76 422l-72 -422h-73z" />
<glyph unicode="&#x25fc;" horiz-adv-x="1080" d="M0 0v1080h1080v-1080h-1080z" />
<glyph unicode="&#xfb03;" horiz-adv-x="1654" d="M126 984l18 98h173l21 147q25 159 121.5 246t240.5 85q67 -2 131 -20l-21 -99q-54 14 -108 15q-100 0 -165 -65t-82 -181l-19 -128h444l20 133q28 164 134.5 255t266.5 89q118 -2 269 -62l-32 -102q-123 56 -235 56q-118 2 -193.5 -65t-94.5 -195l-16 -109h247l-18 -98 h-246l-171 -984h-118l171 984h-444l-171 -984h-120l171 984h-174zM1255 0l189 1082h119l-188 -1082h-120z" />
<glyph unicode="&#xfb04;" horiz-adv-x="1654" d="M126 984l18 98h173l19 133q23 166 119 256.5t245 88.5q58 -2 131 -20l-21 -99q-54 14 -108 14q-102 0 -166 -65t-81 -180l-19 -128h445l19 134q22 162 119 254t248 90q82 0 210 -28l154 -36l-256 -1496h-120l249 1423q-147 33 -235 33q-103 0 -168.5 -64.5t-82.5 -181.5 l-19 -128h251l-17 -98h-251l-171 -984h-118l171 984h-444l-171 -984h-120l171 984h-174z" />
</font>
</defs>
</svg>
